<?xml version="1.0" standalone="no"?>
<!DOCTYPE svg PUBLIC "-//W3C//DTD SVG 1.1//EN" "http://www.w3.org/Graphics/SVG/1.1/DTD/svg11.dtd" >
<svg xmlns="http://www.w3.org/2000/svg">
<metadata>Generated by IcoMoon</metadata>
<defs>
<font id="addIcons" horiz-adv-x="1024">
<font-face units-per-em="1024" ascent="960" descent="-64" />
<missing-glyph horiz-adv-x="1024" />
<glyph unicode="&#x20;" horiz-adv-x="512" d="" />
<glyph unicode="&#xe900;" glyph-name="drag-icon" d="M446.938 21.299c-19.911 0-38.578 4.265-56 12.8s-32.178 20.623-44.266 36.265l-232.534 295.47 20.266 21.33c14.222 14.935 31.289 23.823 51.2 26.67 19.911 2.842 38.4-1.070 55.466-11.735l78.934-48v349.868c0 12.089 4.089 22.222 12.267 30.4s18.311 12.266 30.4 12.266c12.089 0 22.4-4.089 30.933-12.266s12.8-18.311 12.8-30.4v-213.334h318.931c35.558 0 65.782-12.444 90.67-37.333s37.33-55.113 37.33-90.666v-170.67c0-46.93-16.707-87.107-50.13-120.53s-73.6-50.135-120.535-50.135h-235.732zM178.138 597.3c-9.245 15.644-16.356 32.533-21.334 50.666s-7.466 36.8-7.466 56c0 59.022 20.8 109.334 62.4 150.934s91.911 62.4 150.934 62.4c59.022 0 109.333-20.8 150.931-62.4 41.6-41.6 62.403-91.911 62.403-150.934 0-19.2-2.488-37.866-7.47-56-4.977-18.134-12.088-35.022-21.33-50.666l-73.601 42.666c5.689 9.955 9.956 20.089 12.8 30.4s4.267 21.511 4.267 33.6c0 35.555-12.445 65.778-37.334 90.666s-55.111 37.334-90.666 37.334c-35.556 0-65.778-12.445-90.667-37.334s-37.334-55.111-37.334-90.666c0-12.089 1.422-23.289 4.267-33.6s7.111-20.445 12.8-30.4l-73.6-42.666z" />
<glyph unicode="&#xe901;" glyph-name="exit-icon" d="M138.667-32c-29.334 0-54.445 10.445-75.334 31.334s-31.333 45.997-31.333 75.334v746.664c0 29.334 10.444 54.445 31.333 75.334s46 31.333 75.334 31.333h373.333v-106.667h-373.333v-746.664h373.333v-106.669h-373.333zM725.331 181.331l-73.331 77.338 136 135.998h-436v106.666h436l-136 136 73.331 77.334 266.669-266.667-266.669-266.669z" />
<glyph unicode="&#xe902;" glyph-name="ticket-filled-icon" horiz-adv-x="1317" d="M658.283 143.192c17.27 0 31.746 5.837 43.429 17.525 11.682 11.681 17.524 26.156 17.524 43.425s-5.841 31.747-17.524 43.43c-11.682 11.682-26.159 17.524-43.429 17.524s-31.746-5.841-43.429-17.524c-11.682-11.683-17.524-26.161-17.524-43.43s5.841-31.744 17.524-43.425c11.682-11.688 26.159-17.525 43.429-17.525zM658.283 387c17.27 0 31.746 5.841 43.429 17.524s17.524 26.159 17.524 43.429c0 17.27-5.841 31.746-17.524 43.429s-26.159 17.524-43.429 17.524c-17.27 0-31.746-5.841-43.429-17.524s-17.524-26.159-17.524-43.429c0-17.27 5.841-31.746 17.524-43.429s26.159-17.524 43.429-17.524zM658.283 630.81c17.27 0 31.746 5.841 43.429 17.524s17.524 26.159 17.524 43.429c0 17.27-5.841 31.746-17.524 43.429s-26.159 17.524-43.429 17.524c-17.27 0-31.746-5.842-43.429-17.524s-17.524-26.159-17.524-43.429c0-17.27 5.841-31.746 17.524-43.429s26.159-17.524 43.429-17.524zM1145.9-39.665h-975.236c-33.524 0-62.222 11.937-86.095 35.811s-35.81 52.568-35.81 86.089v243.813c33.524 0 62.222 11.937 86.095 35.81s35.809 52.571 35.809 86.095c0 33.524-11.936 62.222-35.809 86.095s-52.571 35.81-86.095 35.81v243.809c0 33.524 11.936 62.222 35.81 86.095s52.571 35.81 86.095 35.81h975.236c33.529 0 62.223-11.937 86.096-35.81s35.811-52.572 35.811-86.095v-243.809c-33.521 0-62.223-11.937-86.096-35.81s-35.811-52.571-35.811-86.095c0-33.524 11.937-62.223 35.811-86.095s52.575-35.81 86.096-35.81v-243.813c0-33.521-11.937-62.215-35.811-86.089s-52.568-35.811-86.096-35.811z" />
<glyph unicode="&#xe903;" glyph-name="close-icon" d="M273.067 149.333l-59.733 59.733 238.933 238.933-238.933 238.933 59.733 59.733 238.933-238.933 238.933 238.933 59.733-59.733-238.933-238.933 238.933-238.933-59.733-59.733-238.933 238.933-238.933-238.933z" />
<glyph unicode="&#xe904;" d="M526.933 192.017l-241.069 241.067 59.733 60.8 181.335-181.333 392.533 392.533 59.733-60.8-452.267-452.266z" />
<glyph unicode="&#xe905;" d="M285.858 192l-241.067 241.067 60.8 59.733 241.067-241.067-60.8-59.733zM526.925 433.067l-60.8 59.733 211.2 211.2 60.8-59.733-211.2-211.2z" />
<glyph unicode="&#xe906;" glyph-name="drag-click-icon" d="M512.005 192.036c-68.979 0-128.001 23.465-177.068 70.4-49.067 46.93-75.378 104.53-78.934 172.8l89.6-26.67c9.245-38.4 29.156-69.868 59.734-94.397 30.578-24.535 66.133-36.803 106.668-36.803 46.93 0 87.112 16.712 120.53 50.135 33.423 33.423 50.135 73.6 50.135 120.532 0 40.534-12.268 76.089-36.797 106.666-24.535 30.578-56.003 50.489-94.403 59.734l-26.665 89.6c68.265-3.555 125.865-29.866 172.8-78.934 46.93-49.066 70.4-108.089 70.4-177.066 0-71.109-24.888-131.556-74.67-181.332-49.777-49.777-110.218-74.665-181.33-74.665zM512.005 21.366c-59.023 0-114.49 11.203-166.401 33.603s-97.066 52.797-135.466 91.197c-38.4 38.4-68.8 83.558-91.2 135.47-22.4 51.907-33.6 107.377-33.6 166.397v19.2c0 6.4 0.711 12.8 2.133 19.2l83.2-25.6v-12.8c0-95.291 33.067-175.997 99.2-242.132s146.845-99.2 242.135-99.2c95.288 0 176 33.065 242.13 99.2 66.135 66.135 99.2 146.842 99.2 242.132s-33.065 176-99.2 242.134c-66.13 66.133-146.842 99.2-242.13 99.2h-12.801l-25.6 83.2c6.4 1.422 12.8 2.133 19.2 2.133h19.201c59.023 0 114.488-11.2 166.4-33.6s97.065-52.8 135.465-91.2c38.4-38.4 68.803-83.555 91.203-135.466s33.597-107.378 33.597-166.4c0-59.021-11.197-114.491-33.597-166.397-22.4-51.912-52.803-97.070-91.203-135.47s-83.553-68.797-135.465-91.197c-51.912-22.4-107.377-33.603-166.4-33.603zM449.071 426.701l-182.4 182.399-53.333-161.066-128 426.666 426.668-128-161.068-53.333 182.397-182.4-84.264-84.266z" />
<glyph unicode="&#xe907;" d="M512 960c282.77 0 512-229.23 512-512s-229.23-512-512-512c-282.77 0-512 229.23-512 512s229.23 512 512 512z" />
<glyph unicode="&#xe908;" d="M865.524 448c0-195.246-158.278-353.524-353.524-353.524s-353.524 158.278-353.524 353.524c0 195.246 158.278 353.524 353.524 353.524s353.524-158.278 353.524-353.524z" />
<glyph unicode="&#xe909;" d="M524.19 691.81v-213.333" />
<glyph unicode="&#xe90a;" d="M524.19 417.524v-213.333" />
<glyph unicode="&#xe90b;" d="M542.476 460.19h213.333" />
<glyph unicode="&#xe90c;" d="M268.19 460.19h213.333" />
<glyph unicode="&#xe90d;" d="M560.762 448c0-26.93-21.831-48.762-48.762-48.762s-48.762 21.831-48.762 48.762c0 26.93 21.831 48.762 48.762 48.762s48.762-21.831 48.762-48.762z" />
<glyph unicode="&#xe90e;" d="M743.619 448c0-127.92-103.699-231.619-231.619-231.619s-231.619 103.699-231.619 231.619c0 127.92 103.699 231.619 231.619 231.619s231.619-103.699 231.619-231.619z" />
<glyph unicode="&#xe90f;" glyph-name="image-2199" d="M236.308 960h551.385c130.509 0 236.308-105.799 236.308-236.308v-551.385c0-130.509-105.799-236.308-236.308-236.308h-551.385c-130.509 0-236.308 105.799-236.308 236.308v551.385c0 130.509 105.799 236.308 236.308 236.308z" />
<glyph unicode="&#xe910;" glyph-name="info-filled-icon" d="M469.331 234.701h85.334v255.999h-85.334v-255.999zM511.998 576.033c12.090 0 22.223 4.089 30.399 12.266s12.268 18.311 12.268 30.4c0 12.089-4.091 22.222-12.268 30.4s-18.309 12.267-30.399 12.267c-12.089 0-22.222-4.089-30.4-12.267s-12.266-18.311-12.266-30.4c0-12.089 4.089-22.222 12.266-30.4s18.311-12.266 30.4-12.266zM511.998 21.366c-59.022 0-114.489 11.203-166.4 33.603s-97.066 52.797-135.466 91.197c-38.4 38.4-68.8 83.558-91.2 135.465-22.4 51.912-33.6 107.382-33.6 166.403s11.2 114.489 33.6 166.4 52.8 97.066 91.2 135.466c38.4 38.4 83.555 68.8 135.466 91.2s107.378 33.6 166.4 33.6c59.020 0 114.49-11.2 166.402-33.6 51.907-22.4 97.065-52.8 135.465-91.2s68.797-83.555 91.197-135.466c22.4-51.911 33.603-107.378 33.603-166.4 0-59.021-11.203-114.491-33.603-166.403-22.4-51.907-52.797-97.065-91.197-135.465s-83.558-68.797-135.465-91.197c-51.912-22.4-107.382-33.603-166.402-33.603z" />
<glyph unicode="&#xe911;" glyph-name="info-outlined-icon" d="M469.333 234.667h85.333v256h-85.333v-256zM512 576c12.089 0 22.223 4.089 30.4 12.266s12.266 18.311 12.266 30.4c0 12.089-4.089 22.222-12.266 30.4s-18.311 12.267-30.4 12.267c-12.089 0-22.222-4.089-30.4-12.267s-12.267-18.311-12.267-30.4c0-12.089 4.089-22.222 12.267-30.4s18.311-12.266 30.4-12.266zM512 21.333c-59.022 0-114.489 11.201-166.4 33.599-51.911 22.403-97.067 52.799-135.467 91.199s-68.8 83.558-91.2 135.47c-22.4 51.911-33.6 107.378-33.6 166.4s11.2 114.489 33.6 166.4c22.4 51.911 52.8 97.067 91.2 135.467s83.556 68.8 135.467 91.2c51.911 22.4 107.378 33.6 166.4 33.6s114.489-11.2 166.4-33.6c51.911-22.4 97.070-52.8 135.47-91.2s68.796-83.556 91.199-135.467c22.397-51.911 33.599-107.378 33.599-166.4s-11.201-114.489-33.599-166.4c-22.403-51.911-52.799-97.070-91.199-135.47s-83.558-68.796-135.47-91.199c-51.911-22.397-107.378-33.599-166.4-33.599zM512 106.667c95.289 0 176.003 33.064 242.136 99.197s99.197 146.847 99.197 242.136c0 95.289-33.064 176-99.197 242.133s-146.847 99.2-242.136 99.2c-95.289 0-176-33.067-242.133-99.2s-99.2-146.844-99.2-242.133c0-95.289 33.067-176.003 99.2-242.136s146.844-99.197 242.133-99.197z" />
<glyph unicode="&#xe912;" glyph-name="lock-icon" d="M255.996 21.299c-23.466 0-43.556 8.356-60.266 25.068s-25.067 36.797-25.067 60.268v426.666c0 23.466 8.356 43.555 25.067 60.266s36.8 25.066 60.266 25.066h42.666v85.334c0 59.022 20.8 109.334 62.4 150.934s91.911 62.4 150.934 62.4c59.022 0 109.331-20.8 150.931-62.4s62.403-91.911 62.403-150.934v-85.334h42.665c23.47 0 43.556-8.355 60.268-25.066s25.068-36.8 25.068-60.266v-426.666c0-23.47-8.356-43.556-25.068-60.268s-36.797-25.068-60.268-25.068h-511.999zM511.996 234.634c23.469 0 43.555 8.356 60.266 25.068s25.068 36.797 25.068 60.262c0 23.47-8.356 43.556-25.068 60.268s-36.797 25.068-60.266 25.068c-23.466 0-43.556-8.356-60.266-25.068s-25.067-36.797-25.067-60.268c0-23.465 8.356-43.551 25.067-60.262s36.8-25.068 60.266-25.068zM383.996 618.633h255.999v85.334c0 35.555-12.442 65.778-37.33 90.666-24.893 24.889-55.112 37.334-90.669 37.334-35.556 0-65.778-12.445-90.666-37.334s-37.334-55.111-37.334-90.666v-85.334z" />
<glyph unicode="&#xe913;" glyph-name="tap-sreen-icon" d="M597.335 362.532h85.335v85.335h85.335v85.333h-85.335v85.334h-85.335v-85.334h-85.33v-85.333h85.33v-85.335zM170.671 106.532c-23.466 0-43.555 8.356-60.266 25.068s-25.066 36.803-25.066 60.268v512c0 23.466 8.355 43.555 25.066 60.266s36.8 25.066 60.266 25.066h682.664c23.47 0 43.556-8.355 60.268-25.066s25.068-36.8 25.068-60.266v-512c0-23.465-8.356-43.556-25.068-60.268s-36.797-25.068-60.268-25.068h-682.664zM170.671 277.202h682.664v426.665h-682.664v-426.665z" />
<glyph unicode="&#xe914;" glyph-name="pan-tool-icon" d="M566.48 171.955c-12.529-5.581-25.666-8.232-39.409-7.958-13.747 0.274-26.73 3.529-38.96 9.761l-279.128 141.773 10.35 25.457c4.891 12.741 13.059 22.495 24.504 29.261 11.445 6.762 23.589 8.832 36.432 6.21l105.841-20.429-112.491 252.66c-3.512 7.888-3.788 15.689-0.828 23.401s8.385 13.324 16.273 16.836c7.888 3.512 15.689 3.788 23.401 0.828s13.324-8.385 16.836-16.273l86.771-194.891 55.684 24.792-99.167 222.732c-3.515 7.888-3.789 15.688-0.83 23.401 2.962 7.712 8.386 13.324 16.274 16.836s15.689 3.788 23.402 0.828c7.713-2.96 13.323-8.385 16.837-16.273l99.163-222.732 55.684 24.792-49.584 111.366c-3.511 7.888-3.789 15.689-0.827 23.401 2.959 7.712 8.386 13.324 16.274 16.836s15.685 3.788 23.398 0.828c7.713-2.96 13.327-8.385 16.837-16.273l49.584-111.366 55.684 24.792-12.398 27.842c-3.511 7.888-3.789 15.688-0.827 23.401 2.959 7.712 8.386 13.324 16.271 16.836 7.888 3.512 15.689 3.788 23.402 0.828s13.323-8.385 16.837-16.273l86.769-194.889c13.637-30.625 14.405-61.7 2.304-93.217-12.098-31.521-33.459-54.096-64.084-67.734l-196.283-87.387z" />
<glyph unicode="&#xe915;" glyph-name="settings-icon" d="M394.661 21.333l-17.067 136.533c-9.244 3.556-17.955 7.822-26.133 12.8s-16.178 10.308-24 15.997l-126.933-53.333-117.333 202.667 109.867 83.203c-0.711 4.978-1.067 9.777-1.067 14.4v28.8c0 4.622 0.356 9.423 1.067 14.4l-109.867 83.2 117.333 202.667 126.933-53.333c7.822 5.689 16 11.022 24.533 16s17.067 9.244 25.6 12.8l17.067 136.533h234.667l17.067-136.533c9.244-3.556 17.954-7.822 26.135-12.8 8.175-4.978 16.179-10.311 24.001-16l126.93 53.333 117.333-202.667-109.864-83.2c0.711-4.978 1.064-9.778 1.064-14.4v-28.8c0-4.622-0.711-9.422-2.133-14.4l109.87-83.203-117.333-202.667-125.867 53.333c-7.822-5.689-16.003-11.019-24.536-15.997s-17.067-9.244-25.6-12.8l-17.067-136.533h-234.667zM514.128 298.667c41.244 0 76.447 14.575 105.603 43.73s43.73 64.358 43.73 105.603c0 41.244-14.575 76.444-43.73 105.6s-64.358 43.733-105.603 43.733c-41.956 0-77.333-14.578-106.133-43.733s-43.2-64.356-43.2-105.6c0-41.244 14.4-76.447 43.2-105.603s64.177-43.73 106.133-43.73z" />
<glyph unicode="&#xe916;" d="M800 448c-0.005-29.507 10.184-58.112 28.841-80.973 18.662-22.856 44.646-38.564 73.559-44.467 7.219-1.475 13.711-5.396 18.376-11.1 4.664-5.709 7.214-12.851 7.224-20.219v-99.241c0-8.489-3.369-16.625-9.375-22.625-6.001-6.006-14.136-9.375-22.625-9.375h-512v576h512c8.489 0 16.625-3.372 22.625-9.373 6.006-6.001 9.375-14.14 9.375-22.627v-99.24c-0.010-7.37-2.56-14.512-7.224-20.218s-11.156-9.628-18.376-11.102c-28.913-5.902-54.897-21.611-73.559-44.47-18.657-22.859-28.846-51.462-28.841-80.97z" />
<glyph unicode="&#xe917;" d="M908.759 542.080c14.459 2.941 27.453 10.787 36.792 22.209 9.334 11.422 14.438 25.719 14.449 40.472v99.24c0 16.974-6.743 33.252-18.744 45.255s-28.283 18.745-45.256 18.745h-768c-16.974 0-33.252-6.743-45.255-18.745s-18.745-28.281-18.745-45.255v-99.24c0.008-14.753 5.113-29.050 14.45-40.472s22.333-19.267 36.79-22.209c21.617-4.483 41.027-16.279 54.963-33.4s21.544-38.523 21.544-60.6c0-22.075-7.609-43.477-21.544-60.598s-33.346-28.918-54.963-33.403c-14.483-2.944-27.501-10.813-36.84-22.267-9.34-11.459-14.428-25.789-14.399-40.571v-99.241c0-16.973 6.743-33.254 18.745-45.256s28.281-18.744 45.255-18.744h768c16.973 0 33.254 6.743 45.256 18.744s18.744 28.283 18.744 45.256v99.241c-0.010 14.751-5.115 29.051-14.449 40.468-9.339 11.423-22.333 19.272-36.792 22.211-21.617 4.485-41.027 16.276-54.963 33.403-13.932 17.121-21.54 38.523-21.54 60.595 0 22.078 7.608 43.48 21.54 60.601 13.937 17.122 33.347 28.918 54.963 33.401v0.16zM128 291.2c36.148 7.363 68.641 26.993 91.978 55.562s36.084 64.328 36.084 101.217c0 36.891-12.747 72.648-36.084 101.218s-55.83 48.199-91.978 55.563v99.24h224v-512h-224v99.2zM896 291.2v-99.2h-480v512h480v-99.2c-36.147-7.364-68.639-26.992-91.976-55.563s-36.086-64.327-36.086-101.217c0-36.889 12.749-72.647 36.086-101.217s55.828-48.2 91.976-55.562v-0.041z" />
<glyph unicode="&#xe918;" glyph-name="timer-icon" d="M384 831.967v85.333h256v-85.333h-256zM469.334 362.634h85.331v255.999h-85.331v-255.999zM512 21.299c-52.622 0-102.222 10.132-148.8 30.403-46.578 20.265-87.289 47.821-122.134 82.662-34.844 34.847-62.4 75.556-82.666 122.138-20.266 46.577-30.4 96.174-30.4 148.797s10.134 102.223 30.4 148.801c20.266 46.578 47.822 87.289 82.666 122.133s75.556 62.4 122.134 82.667c46.578 20.266 96.178 30.4 148.8 30.4 44.088 0 86.4-7.111 126.935-21.334 40.53-14.222 78.577-34.845 114.13-61.866l59.735 59.733 59.735-59.733-59.735-59.734c27.023-35.556 47.647-73.6 61.865-114.134 14.223-40.533 21.335-82.844 21.335-126.934 0-52.623-10.132-102.221-30.403-148.797-20.265-46.582-47.821-87.291-82.662-122.138-34.847-34.842-75.556-62.397-122.138-82.662-46.577-20.27-96.174-30.403-148.797-30.403z" />
<glyph unicode="&#xe919;" glyph-name="arrow-down-icon" horiz-adv-x="1489" d="M744.727-17.501l-744.727 744.731 173.77 173.77 570.957-570.957 570.954 570.957 173.773-173.77-744.727-744.731z" />
<glyph unicode="&#xe91a;" glyph-name="calender-icon" horiz-adv-x="878" d="M97.524-39.812c-26.819 0-49.778 9.552-68.876 28.65s-28.648 42.057-28.648 68.879v682.664c0 26.819 9.549 49.777 28.648 68.876s42.057 28.648 68.876 28.648h48.762v97.524h97.524v-97.524h390.096v97.524h97.524v-97.524h48.764c26.814 0 49.774-9.55 68.871-28.648s28.65-42.057 28.65-68.876v-682.664c0-26.821-9.552-49.781-28.65-68.879s-42.057-28.65-68.871-28.65h-682.669zM97.524 57.717h682.669v487.616h-682.669v-487.616zM97.524 642.857h682.669v97.524h-682.669v-97.524zM438.857 350.286c-13.816 0-25.397 4.673-34.743 14.019s-14.019 20.927-14.019 34.743c0 13.816 4.673 25.397 14.019 34.743s20.927 14.019 34.743 14.019c13.816 0 25.397-4.673 34.743-14.019s14.019-20.927 14.019-34.743c0-13.816-4.673-25.397-14.019-34.743s-20.927-14.019-34.743-14.019zM243.809 350.286c-13.816 0-25.397 4.673-34.743 14.019s-14.019 20.927-14.019 34.743c0 13.816 4.673 25.397 14.019 34.743s20.927 14.019 34.743 14.019c13.816 0 25.397-4.673 34.743-14.019s14.019-20.927 14.019-34.743c0-13.816-4.673-25.397-14.019-34.743s-20.927-14.019-34.743-14.019zM633.905 350.286c-13.816 0-25.397 4.673-34.743 14.019s-14.019 20.927-14.019 34.743c0 13.816 4.673 25.397 14.019 34.743s20.927 14.019 34.743 14.019c13.816 0 25.397-4.673 34.743-14.019s14.019-20.927 14.019-34.743c0-13.816-4.673-25.397-14.019-34.743s-20.927-14.019-34.743-14.019zM438.857 155.238c-13.816 0-25.397 4.674-34.743 14.021-9.346 9.34-14.019 20.926-14.019 34.743s4.673 25.394 14.019 34.74c9.346 9.346 20.927 14.019 34.743 14.019s25.397-4.673 34.743-14.019c9.346-9.346 14.019-20.923 14.019-34.74s-4.673-25.403-14.019-34.743c-9.346-9.348-20.927-14.021-34.743-14.021zM243.809 155.238c-13.816 0-25.397 4.674-34.743 14.021-9.345 9.34-14.019 20.926-14.019 34.743s4.673 25.394 14.019 34.74c9.346 9.346 20.927 14.019 34.743 14.019s25.397-4.673 34.743-14.019c9.346-9.346 14.019-20.923 14.019-34.74s-4.673-25.403-14.019-34.743c-9.345-9.348-20.927-14.021-34.743-14.021zM633.905 155.238c-13.816 0-25.397 4.674-34.743 14.021-9.346 9.34-14.019 20.926-14.019 34.743s4.673 25.394 14.019 34.74c9.345 9.346 20.927 14.019 34.743 14.019s25.397-4.673 34.743-14.019c9.345-9.346 14.019-20.923 14.019-34.74s-4.673-25.403-14.019-34.743c-9.346-9.348-20.927-14.021-34.743-14.021z" />
<glyph unicode="&#xe91b;" glyph-name="wm-logo-primary-icon" horiz-adv-x="6451" d="M3228.442 940.9c8.525-8.562 12.749-16.589 16.589-31.447 2.842-10.973 6.989-22.021 9.242-24.561 2.278-2.522 6.451-13.404 9.267-24.175 2.816-10.753 7.091-22.499 9.446-26.071 2.355-3.59 6.707-16.184 9.6-28.004 2.944-11.802 7.782-25.611 10.803-30.674s7.066-16.516 8.96-25.427c1.894-8.911 6.118-21.339 9.37-27.618 3.226-6.279 7.501-19.020 9.446-28.335 1.946-9.298 5.658-20.897 8.243-25.759 2.56-4.861 7.526-19.83 11.034-33.27 3.482-13.44 8.243-27.397 10.598-31.007 2.33-3.628 5.914-14.858 7.987-24.983 2.074-10.127 6.579-24.545 10.010-32.038 20.198-43.894 11.059-58.511-36.531-58.44-39.782 0.056-45.338 2.67-52.454 24.581-3.021 9.242-7.578 20.933-10.138 25.997-2.586 5.064-6.886 17.989-9.574 28.723-2.688 10.716-7.629 24.507-10.982 30.638-3.328 6.131-6.067 13.22-6.093 15.777-0.051 13.443-7.066 27.932-15.616 32.259-13.645 6.94-14.899 6.075-18.816-13.036-1.997-9.702-7.040-24.876-11.238-33.713-4.173-8.837-9.011-23.255-10.701-32.036-1.69-8.783-5.12-19.039-7.629-22.776-2.483-3.738-6.17-13.476-8.166-21.652-7.296-29.77-16.23-34.762-62.362-34.798-43.136-0.018-50.714 15.245-29.747 59.82 3.968 8.451 8.755 22.482 10.624 31.191 1.869 8.727 6.221 21.174 9.677 27.692s7.68 19.036 9.395 27.837c1.69 8.783 5.786 21.174 9.062 27.546 3.302 6.351 7.706 19.848 9.83 29.972 2.125 10.127 6.323 23.237 9.318 29.147s7.219 18.338 9.37 27.618c2.125 9.28 7.091 23.788 11.008 32.221s8.166 21.56 9.421 29.146c1.254 7.604 4.454 17.951 7.142 23.015s8.064 19.572 11.981 32.221c3.891 12.667 9.856 31.3 13.235 41.427s7.731 24.285 9.677 31.466c4.301 15.908 5.35 15.981 19.712 1.528zM1169.795 698.084c-6.154-1.27-16.003-5.156-21.896-8.635-5.873-3.479-15.946-7.255-22.382-8.376-6.454-1.124-15.404-5.396-19.907-9.482-4.485-4.088-10.752-8.248-13.921-9.224-3.154-0.996-6.51-4.145-7.45-7.017-0.957-2.852-5.947-7.547-11.108-10.44-5.158-2.872-9.4-7.252-9.4-9.756 0-2.506-2.739-5.396-6.077-6.446-3.359-1.029-6.999-4.657-8.087-8.026-1.088-3.372-5.911-10.074-10.714-14.897-6.641-6.664-9.249-13.036-10.975-26.696-1.257-9.869-3.697-19.645-5.443-21.727-1.743-2.081-2.419-8.305-1.5-13.809 5.084-30.656 11.277-52.383 16.681-58.422 3.338-3.756 8.049-10.696 10.468-15.429 4.672-9.188 41.014-42.033 46.492-42.033 1.82 0 6.531-3.333 10.47-7.421s13.21-8.986 20.618-10.9c7.393-1.915 16.005-6.001 19.139-9.057 3.133-3.092 14.484-7.107 25.367-8.986 11.858-2.043 22.438-5.947 26.642-9.812 4.26-3.94 13.491-7.291 23.79-8.673 9.288-1.234 20.995-5.248 26.135-8.965 5.123-3.702 17.751-8.248 28.070-10.092 10.319-1.859 19.942-5.394 21.368-7.862 1.426-2.465 5.929-5.745 9.981-7.252 17.618-6.574 12.628-41.961-6.922-49.032-7.073-2.578-15.967-7.419-19.756-10.79-11.034-9.795-97.733-9.242-110.605 0.701-4.859 3.756-13.96 7.77-20.227 8.929-6.264 1.142-15.178 5.67-19.812 10.053-25.121 23.752-36.979 27.876-49.457 17.178-2.591-2.209-10.77-5.78-18.163-7.936-7.411-2.153-14.766-6.259-16.34-9.149-1.577-2.89-6.774-6.188-11.54-7.347-16.829-4.050-22.758-10.071-22.758-23.032 0-18.025 56.399-72.305 85.238-82.063 7.017-2.373 16.643-7.014 21.35-10.309 4.728-3.297 14.674-6.628 22.141-7.421 74.429-7.823 82.591-8.026 129.139-3.203 37.094 3.83 48.108 6.039 53.153 10.678 3.51 3.205 13.002 7.457 21.089 9.446 9.362 2.301 16.492 6.298 19.607 10.972 2.701 4.035 6.397 7.329 8.218 7.329 3.62 0 30.938 25.851 30.938 29.274 0 1.18 4.017 6.63 8.914 12.099 5.366 6.001 9.792 15.299 11.105 23.345 1.201 7.365 4.58 15.982 7.506 19.149 7.524 8.174 7.598 51.075 0.113 59.287-2.87 3.128-6.228 11.213-7.45 17.951-3.602 19.72-6.884 24.507-38.144 55.529-9.436 9.39-20.9 17.51-27.016 19.167-5.837 1.585-13.435 5.652-16.886 9.024-3.453 3.387-12.403 7.124-19.889 8.302-7.485 1.18-18.593 5.45-24.691 9.5-6.080 4.052-18.051 8.23-26.586 9.28-8.52 1.050-20.431 5.12-26.455 9.021-6.003 3.904-19.118 8.545-29.12 10.312-9.999 1.766-21.745 5.983-26.117 9.354-4.37 3.369-13.059 7.032-19.343 8.156-43.658 7.823-37.806 60.352 7.45 67.018 7.447 1.106 17.016 4.677 21.294 7.972 9.925 7.677 44.017 8.433 54.505 1.216 3.809-2.614 14.221-6.886 23.153-9.482 9.155-2.67 18.78-7.936 22.121-12.114 3.264-4.070 7.636-7.386 9.7-7.386s7.503-4.196 12.101-9.316c9.569-10.716 18.068-10.327 36.831 1.659 6.021 3.848 16.172 7.88 22.533 8.965 25.441 4.344 47.15 33.29 32.197 42.9-4.298 2.762-7.826 7.124-7.826 9.702 0 2.56-3.471 8.082-7.729 12.262-4.26 4.18-9.249 10.33-11.069 13.681-1.82 3.333-5.274 6.057-7.675 6.057s-7.373 4.142-11.052 9.206c-3.658 5.064-8.517 9.206-10.788 9.206s-6.341 3.333-9.062 7.401c-3.395 5.102-9.869 8.433-20.787 10.734-8.724 1.843-20.132 6.426-25.329 10.202-10.094 7.327-100.905 11.433-128.166 5.798zM4337.741 691.676c-14.618-1.252-42.035-3.351-60.979-4.621-50.176-3.405-48.461-1.454-48.461-55.181 0-58.568-6.81-53.834 77.619-53.891 37.274-0.018 69.888-1.362 72.474-2.947 4.045-2.522 4.89-28.795 6.246-195.589 0.87-105.958 2.714-194.962 4.147-197.76 4.941-9.759 18.79-12.319 61.133-11.269 58.394 1.454 51.712-24.284 53.555 205.955 0.845 106.698 2.714 195.72 4.096 197.816 1.894 2.893 19.917 3.85 72.218 3.85 86.835 0 80.051-4.641 80.051 54.589 0 47.596-1.792 52.401-21.35 57.372-11.878 3.018-268.774 4.454-300.749 1.674zM6303.078 687.498c6.886-2.652 18.842-6.408 26.598-8.358 40.32-10.109 96.947-61.128 96.947-87.347 0-9.206-15.565-21.228-36.326-28.114-8.422-2.78-18.458-7.053-22.298-9.5-9.549-6.039-19.046-3.075-35.456 11.064-40.934 35.259-81.613 41.649-134.4 21.1-32-12.465-37.939-17.987-41.984-39.273-2.714-14.121 5.069-33.362 14.464-35.773 3.738-0.957 13.926-5.468 22.707-10.015 8.781-4.567 21.504-9.298 28.314-10.514 6.81-1.234 17.434-4.769 23.629-7.88 6.221-3.113 19.968-7.862 30.592-10.55 10.598-2.708 23.885-7.514 29.517-10.68 5.606-3.185 15.13-6.738 21.146-7.916 6.042-1.162 16.589-5.266 23.45-9.096 6.886-3.848 16.051-8.046 20.352-9.336 7.885-2.355 21.043-12.022 40.064-29.404 65.408-59.855 35.533-190.118-49.587-216.044-4.224-1.288-14.259-5.596-22.323-9.556-35.917-17.71-158.054-17.638-193.306 0.092-7.757 3.904-17.587 8.12-21.888 9.39-29.491 8.655-78.029 56.581-78.106 77.128-0.077 12.096 0.563 12.925 14.771 19.443 8.166 3.738 23.040 10.918 32.998 15.944 20.454 10.294 34.253 8.858 45.133-4.695 3.046-3.791 15.36-12.316 27.418-18.964l21.888-12.078 109.44 0.166 22.579 13.386c30.080 17.841 39.757 48.276 18.714 58.898-3.789 1.935-9.702 5.911-13.158 8.876-3.43 2.947-13.978 7.826-23.45 10.826-9.446 3-20.019 7.255-23.475 9.464-3.482 2.209-14.029 5.614-23.45 7.567-9.446 1.969-22.093 6.001-28.109 8.947-6.042 2.947-19.021 7.642-28.851 10.44-9.882 2.78-22.554 7.642-28.16 10.808-5.632 3.167-13.747 6.756-18.048 7.972-39.219 11.121-81.536 54.886-95.13 98.394l-8.653 27.617 7.91 28.298c17.050 61.071 75.546 106.954 158.566 124.372 15.488 3.241 76.314-0.238 88.96-5.1zM3899.981 688.399c5.99-1.731 20.966-5.855 33.254-9.132 37.76-10.071 80.666-42.107 96.102-71.713l8.986-17.234-8.166-10.478c-5.683-7.291-13.184-12.078-24.627-15.703-9.037-2.872-19.354-6.996-22.912-9.188-14.694-8.986-24.858-6.868-42.547 8.911-30.080 26.826-96.384 42.458-115.84 27.323-2.202-1.731-11.034-5.45-19.635-8.287-48.154-15.834-57.242-54.001-17.536-73.738 8.525-4.255 16.307-9.004 17.28-10.55s9.19-4.529 18.202-6.61c9.062-2.081 21.453-6.259 27.571-9.28 6.144-3.021 19.814-7.695 30.438-10.383 10.598-2.708 23.885-7.496 29.517-10.642 5.606-3.149 15.846-6.684 22.733-7.826 6.886-1.16 18.15-5.284 25.011-9.152 6.886-3.884 16.026-8.1 20.326-9.352 69.555-20.436 102.682-136.138 55.757-194.852-3.994-5.028-10.65-13.404-14.746-18.616-6.272-7.972-17.382-16.607-36.019-28.022-49.894-30.564-185.728-39.624-228.582-15.245-5.146 2.926-16.051 7.805-24.243 10.826-8.141 3.039-14.822 6.479-14.822 7.66 0 1.178-4.557 4.787-10.112 8.008-43.981 25.482-62.362 65.528-36.096 78.674 7.27 3.645 18.176 9.777 24.218 13.663 22.349 14.252 36.429 13.146 59.008-4.659 27.622-21.763 34.611-24.709 67.226-28.28 75.52-8.284 139.648 16.148 139.648 53.23 0 10.071-28.877 35.441-44.877 39.437-7.142 1.787-20.71 6.536-30.157 10.55-9.472 4.014-22.835 8.266-29.722 9.446-6.861 1.178-16.717 4.621-21.888 7.66-5.146 3.057-16.41 7.252-25.011 9.334-18.509 4.493-47.667 17.859-76.442 35.018-95.027 56.727-91.034 176.645 7.654 228.861 6.861 3.625 14.822 8.617 17.69 11.082 2.842 2.45 15.488 7.014 28.134 10.145 12.621 3.113 26.47 7.071 30.771 8.783 10.342 4.124 70.579 4.362 84.454 0.33zM769.39 683.871c-18.967-10.109-19.643-15.852-20.844-178.486-1.070-143.281 0.187-179.955 9.848-284.498 4.954-53.688 5.274-54.057 46.925-54.039 33.923 0.018 50.527 3.94 55.913 13.164 6.492 11.141 7.391 485.263 0.937 494.93-8.837 13.238-73.098 19.423-92.78 8.929zM1934.618 685.066c-10.657-6.313-10.844-8.064-10.9-98.409-0.036-67.021-0.975-88.635-3.958-90.532-4.559-2.89-196.59-5.358-207.567-2.652l-7.411 1.823v84.18c0 110.415 2.514 105.958-59.702 105.958-35.666 0-37.898-0.369-45.197-7.529l-7.675-7.532v-236.058c0-290.816-5.422-264.284 54.149-264.358 59.343-0.092 56.417-5.614 58.424 110.418l1.556 90.529h215.767l1.577-96.182 1.556-96.166 7.749-6.149c10.412-8.266 80.788-7.457 89.439 1.032 14.728 14.454 16.118 488.686 1.482 506.417-6.323 7.66-78.126 11.84-89.29 5.21zM2311.644 683.133c-17.654-8.837-21.801-17.344-25.103-51.461-1.8-18.54-5.517-36.38-9.362-44.943-3.809-8.451-7.729-27.028-9.682-45.955-2.045-19.812-5.665-36.677-9.623-44.759-4.109-8.379-7.488-24.655-9.551-46.031-2.25-23.089-5.066-36.050-9.362-42.972-4.183-6.738-7.168-19.94-9.344-41.426-1.894-18.56-5.742-36.972-9.344-44.78-3.451-7.419-7.992-28.39-10.337-47.557-2.476-20.454-6.792-39.88-10.675-48.11-20.244-42.88-8.463-56.763 48.161-56.763h41.672l9.661 9.057c11.052 10.368 14.372 20.989 17.224 55.071 1.26 14.802 4.524 28.979 8.387 36.436 4.035 7.734 7.544 23.567 9.626 43.269 2.007 19.167 5.629 35.663 9.418 43.064 3.866 7.493 7.393 23.826 9.439 43.727 2.644 25.667 8.612 44.78 8.612 27.564 0-2.301 3.62-9.408 8.049-15.816 5.722-8.284 9.231-19.443 12.157-38.646 2.647-17.344 6.323-29.737 10.301-34.706 4.109-5.12 6.922-14.95 8.348-29.166 1.295-13.018 4.992-26.696 9.362-34.762 4.749-8.781 7.995-21.65 9.513-37.724 2.478-26.035 17.636-59.433 29.926-65.897 3.151-1.656 22.909-3.018 43.886-3.018h38.141l10.977 11.433c13.752 14.287 18.161 24.745 21.053 49.695 1.254 10.826 5.478 25.61 9.395 32.827 4.403 8.156 7.936 21.635 9.318 35.535 1.434 14.71 4.685 26.678 9.446 34.816 4.89 8.323 7.962 19.886 9.37 35.277 1.408 15.227 4.198 25.797 8.294 31.503 3.405 4.731 7.757 16.829 9.651 26.862 4.915 25.961 7.117 22.851 10.906-15.429 2.355-23.77 5.146-36.621 9.574-43.727 4.429-7.124 7.168-19.848 9.498-43.561 2.33-24.067 4.915-35.758 9.114-41.428 4.173-5.67 6.886-17.897 9.498-42.788 3.354-31.946 4.582-36.255 14.822-51.407l11.187-16.532h43.136c37.811 0 43.776 0.699 48.307 5.614 7.654 8.305 6.963 38.794-1.229 54.333-4.122 7.826-7.987 24.968-10.803 48.018-2.637 21.783-6.733 40.453-10.394 47.56-3.866 7.493-7.219 23.621-9.318 44.721-2.304 23.567-5.043 35.868-9.574 43.085-4.659 7.365-7.117 18.816-9.139 42.604-1.946 22.723-4.736 36.18-9.267 44.705-4.352 8.192-7.578 23.107-9.882 45.422-2.227 21.745-5.683 37.819-9.984 46.546-4.582 9.277-7.373 23.345-9.242 46.231-3.763 46.38-12.749 52.014-77.645 48.699-38.989-2.007-45.107-4.603-48.384-20.603-1.024-4.989-4.557-12.869-7.885-17.49-3.484-4.861-7.442-18.34-9.393-32-1.859-12.982-6.136-28.869-9.495-35.297-3.359-6.426-7.711-23.419-9.682-37.78-1.951-14.341-5.44-28.15-7.747-30.674-4.897-5.358-9.851-24.893-12.554-49.656-1.050-9.592-3.919-19.075-6.377-21.064-4.897-3.994-9.062-17.823-12.291-40.801-2.701-19.313-3.94-17.454-7.974 11.988-2.138 15.611-5.683 27.543-9.869 33.252-4.539 6.167-7.316 16.422-9.080 33.564-1.725 16.865-4.503 27.287-8.799 32.975-4.035 5.358-7.375 16.957-9.362 32.479-3.415 26.808-5.478 33.969-11.84 41.26-2.383 2.744-5.76 17.933-7.485 33.769-2.084 18.798-5.14 31.465-8.837 36.511-3.116 4.252-6.661 10.826-7.88 14.618-5.292 16.351-75.52 23.695-101.637 10.642zM96.071 674.831c4.747-4.659 7.674-11.049 7.674-16.755 0-5.082 2.702-15.964 6.004-24.195s7.674-26.586 9.7-40.781c2.045-14.195 7.017-37.542 11.051-51.886 4.052-14.341 8.781-36.454 10.507-49.103 2.908-21.138 13.152-58.918 22.008-81.213 4.841-12.152 8.105-6.74 12.833 21.302 2.008 11.858 6.229 27.213 9.419 34.135 3.171 6.922 7.261 21.798 9.1 33.050 1.82 11.249 6.023 27.174 9.325 35.387 3.283 8.212 8.105 25.795 10.676 39.071 2.589 13.274 6.886 28.408 9.569 33.62 2.664 5.228 6.867 20.859 9.343 34.724 6.83 38.444 12.984 41.905 70.132 39.439 40.115-1.751 47.357-5.489 47.357-24.397 0-5.007 3.451-17.62 7.672-28.042 4.221-10.419 9.044-27.451 10.732-37.855 1.69-10.401 5.348-23.27 8.143-28.575 2.796-5.302 7.017-20.419 9.382-33.582 2.345-13.166 6.584-29.312 9.4-35.868 2.796-6.572 7.767-24.873 11.013-40.689 6.94-33.695 6.472-32.993 18.368-28.152 10.094 4.106 13.752 14.528 17.843 50.762 1.144 10.125 4.539 24.635 7.524 32.22 3 7.603 7.109 26.237 9.137 41.426 2.025 15.191 6.341 35.223 9.587 44.503 3.228 9.277 7.506 28.611 9.492 42.954 1.989 14.362 4.841 29.11 6.305 32.809 7.823 19.574 96.814 18.117 96.814-1.582 0-11.932-10.189-69.174-13.829-77.734-2.552-5.985-6.717-27.305-9.267-47.393-2.552-20.068-6.7-41.334-9.231-47.245-2.552-5.911-6.943-26.33-9.795-45.366-2.852-19.039-7.204-39.365-9.682-45.166-2.476-5.798-6.735-25.426-9.492-43.617-2.76-18.171-6.886-36.639-9.193-41.004-2.291-4.344-6.38-23.383-9.062-42.291s-6.904-39.124-9.364-44.908c-2.458-5.798-5.422-16.66-6.566-24.136-1.144-7.496-4.764-17.935-8.028-23.219l-5.967-9.61-82.836 1.713-9.869 14.472c-6.94 10.199-10.975 21.1-13.601 36.823-2.063 12.298-6.436 28.447-9.738 35.886-3.284 7.455-7.506 23.345-9.344 35.295-1.856 11.968-6.042 27.745-9.306 35.092s-7.506 22.536-9.457 33.748c-1.933 11.231-6.19 26.624-9.436 34.227-3.267 7.588-7.844 24.545-10.15 37.673-4.69 26.458-7.242 31.078-12.495 22.515-1.953-3.185-6.717-9.592-10.583-14.249-4.239-5.12-9.042-18.043-12.083-32.571-2.775-13.276-7.091-28.004-9.569-32.773-2.493-4.751-6.566-19.241-9.061-32.22-2.477-12.964-7.167-29.773-10.413-37.376-3.227-7.585-7.617-24.156-9.719-36.826-2.12-12.649-5.797-26.752-8.18-31.337-2.383-4.564-6.436-18.117-9.006-30.121-7.918-36.897-12.271-39.805-59.758-39.805-45.836 0-54.917 6.426-59.026 41.738-1.145 9.961-4.803 26.071-8.105 35.794-3.302 9.738-8.049 31.834-10.526 49.103-2.495 17.27-6.773 37.617-9.55 45.22-2.758 7.585-7.092 27.617-9.644 44.483-2.533 16.883-7.299 38.979-10.601 49.106-3.283 10.125-6.867 26.696-7.955 36.823s-5.347 30.159-9.494 44.5c-4.128 14.344-8.931 38.592-10.657 53.873-1.745 15.301-5.966 35.794-9.381 45.553-18.331 52.252-13.19 60.132 39.119 60.132 34.166 0 36.511-0.404 43.791-7.529zM5662.054 679.58l81.306-2.301 27.341-12.833c15.053-7.050 27.366-14.139 27.366-15.759s3.328-4.713 7.398-6.886c6.707-3.553 19.968-17.897 38.554-41.702 38.554-49.436 9.626-153.943-52.608-190.047-16.87-9.759-18.022-29.957-2.816-48.904 3.302-4.124 7.654-12.593 9.702-18.816 2.022-6.223 5.504-13.386 7.706-15.926 2.253-2.522 6.579-10.808 9.626-18.412 3.098-7.606 8.858-18.486 12.8-24.212s7.168-12.777 7.168-15.688c0-2.89 3.354-10.107 7.424-16.018 4.096-5.929 9.216-16.128 11.341-22.682 2.15-6.556 6.63-14.879 9.958-18.468 4.48-4.826 5.811-10.017 5.094-19.83-1.203-16.312-9.702-19.057-54.4-17.546-44.109 1.49-46.106 3.405-85.504 81.582-17.613 34.982-33.971 67.057-36.352 71.273-2.355 4.216-7.68 14.71-11.853 23.309-13.261 27.489-17.254 28.851-83.994 28.851-40.576 0-58.65-1.085-61.286-3.681-2.739-2.67-3.814-27.103-3.917-89.759-0.128-58.199-1.382-89.536-3.917-96.809l-3.738-10.734-36.762-0.865c-42.010-0.996-47.642 0.847-52.198 17.011-6.4 22.556-4.326 474.493 2.176 480.218 9.856 8.617 67.43 10.071 224.384 5.635zM5253.274 674.516c6.528-4.49 6.938-6.996 6.938-42.476 0-54.702 18.406-49.085-166.835-50.944-169.958-1.695-163.021-0.829-165.786-20.549-10.854-77.862-17.971-74.476 155.955-74.862 155.597-0.369 151.603 0.056 157.44-16.719 6.323-18.209 2.995-80.993-4.582-86.444-4.301-3.092-36.403-3.958-146.432-3.994-172.595-0.056-156.237 4.749-157.389-46.287-1.254-55.716-19.328-50.007 164.070-51.866 178.739-1.805 161.408 2.89 164.582-44.649 2.406-35.702-1.485-55.199-11.494-57.833-3.686-0.975-95.821-1.784-204.749-1.805l-198.016-0.054-9.139 8.986-9.139 8.965v475.763l6.938 4.767c6.118 4.216 31.181 4.787 208.819 4.787s202.701-0.571 208.819-4.787zM5537.741 578.040c-7.091-4.383-8.218-77.975-1.331-87.237 5.197-6.976 113.024-8.192 162.688-1.802 60.826 7.805 77.338 50.189 30.464 78.121l-19.149 11.415-83.584 1.454c-57.958 0.993-85.274 0.404-89.088-1.951zM3060.813 413.087c17.587-9.574 33.715-21.338 44.595-32.515l10.624-10.936-3.302-19.61c-1.818-10.77-6.144-25.72-9.626-33.231-3.507-7.514-8.499-22.776-11.136-33.915-2.637-11.159-7.552-25.592-10.906-32.092-16.179-31.355-10.445-52.291 11.366-41.372 7.066 3.535 13.747 7.844 14.822 9.592 1.101 1.731 7.168 5.947 13.517 9.372 16.077 8.671 29.107 17.603 70.605 48.33 27.494 20.347 44.621 16.719 87.757-18.578 5.683-4.639 11.29-8.451 12.467-8.451 2.637 0 51.686-34.89 66.483-47.263 19.533-16.351 25.933 19.848 8.294 46.712-2.586 3.919-6.758 16.809-9.267 28.628-2.509 11.84-6.861 24.95-9.651 29.128-6.963 10.44-17.050 59.067-13.542 65.288 1.536 2.67 9.267 9.705 17.254 15.596 7.962 5.911 19.2 14.564 24.934 19.241 18.099 14.766 33.28 13.238 38.707-3.886 2.406-7.603 7.552-20.713 11.443-29.164 3.891-8.433 8.064-20.861 9.242-27.617 1.178-6.738 5.478-19.866 9.523-29.146 4.070-9.28 8.883-24.174 10.701-33.085s5.965-21.34 9.19-27.62c3.251-6.277 7.45-18.706 9.37-27.617 1.946-8.911 6.195-21.376 9.472-27.692 3.302-6.316 6.963-18.355 8.166-26.752s5.504-22.868 9.523-32.146c4.019-9.28 9.472-25.521 12.109-36.070 2.637-10.568 6.784-22.295 9.242-26.089 2.432-3.794 5.99-14.177 7.859-23.107 1.894-8.911 6.067-21.34 9.318-27.617 3.277-6.262 7.629-19.684 9.754-29.809 2.125-10.127 6.554-23.606 9.83-29.957 8.397-16.202 4.096-24.1-11.238-20.713-9.984 2.209-16.23 6.131-39.219 24.617-4.301 3.461-15.565 11.653-25.037 18.227-27.827 19.351-40.781 28.908-48.358 35.702-3.942 3.515-13.312 10.107-20.838 14.653-7.526 4.531-19.994 13.018-27.725 18.854-7.757 5.837-18.099 12.815-23.040 15.539-4.941 2.708-19.021 12.319-31.283 21.358-35.584 26.237-43.187 31.688-60.954 43.766-9.216 6.259-21.376 15.188-27.008 19.83-10.624 8.781-30.413 11.709-34.56 5.117-1.843-2.926-9.267-8.082-44.467-30.986-4.378-2.836-11.597-8.064-16.051-11.617s-13.030-9.833-19.072-13.939c-6.016-4.106-16.41-11.305-23.091-16s-17.459-11.986-23.962-16.202c-6.502-4.216-20.25-14.103-30.49-21.947-10.266-7.844-21.581-15.816-25.216-17.713-3.584-1.894-9.907-6.518-14.029-10.273s-12.262-9.979-18.048-13.827c-26.112-17.308-47.898-32.645-68.403-48.202-38.067-28.833-53.53-22.72-36.019 14.231 4.301 9.021 7.834 19.868 7.885 24.084 0 4.216 3.379 14.71 7.475 23.327s9.011 22.851 10.906 31.631c1.92 8.801 6.323 22.057 9.779 29.46 3.43 7.419 8.422 22.682 11.059 33.894 2.662 11.231 6.784 23.383 9.19 27.011 2.406 3.61 6.451 16.461 9.011 28.539s6.861 26.181 9.574 31.337c2.714 5.156 7.091 18.54 9.779 29.752 2.637 11.213 6.886 23.514 9.421 27.305 2.534 3.812 6.579 16.166 8.986 27.489 2.432 11.305 6.63 23.9 9.344 27.986 2.714 4.070 7.142 16.627 9.805 27.894 2.662 11.251 7.373 25.446 10.47 31.521 3.098 6.057 6.656 15.171 7.885 20.216 4.403 17.879 11.75 20.823 28.8 11.525z" />
<glyph unicode="&#xe91c;" glyph-name="wm-logo-white-icon" horiz-adv-x="6330" d="M3167.879 940.9c8.36-8.562 12.521-16.589 16.277-31.447 2.779-10.974 6.865-22.021 9.076-24.562 2.225-2.522 6.312-13.404 9.076-24.175 2.779-10.752 6.959-22.499 9.277-26.071 2.318-3.591 6.572-16.184 9.425-28.005 2.872-11.802 7.643-25.611 10.608-30.674 2.96-5.063 6.921-16.516 8.778-25.427 1.862-8.911 6.004-21.339 9.188-27.618s7.363-19.019 9.277-28.336c1.918-9.298 5.562-20.898 8.085-25.758s7.382-19.829 10.826-33.27c3.421-13.441 8.099-27.397 10.398-31.006 2.304-3.627 5.818-14.858 7.843-24.985s6.447-24.543 9.83-32.037c19.81-43.894 10.845-58.515-35.863-58.441-39.028 0.056-44.479 2.672-51.475 24.581-2.942 9.243-7.419 20.934-9.937 25.997-2.523 5.063-6.758 17.988-9.393 28.723-2.63 10.716-7.475 24.506-10.771 30.637-3.277 6.131-5.962 13.22-5.981 15.779-0.056 13.441-6.921 27.931-15.318 32.257-13.4 6.941-14.615 6.076-18.465-13.036-1.95-9.703-6.921-24.874-11.027-33.712s-8.839-23.254-10.515-32.037c-1.657-8.782-5.027-19.038-7.475-22.775s-6.056-13.478-8.024-21.652c-7.145-29.773-15.928-34.763-61.179-34.8-42.324-0.019-49.762 15.247-29.179 59.822 3.887 8.451 8.578 22.481 10.403 31.19 1.839 8.727 6.111 21.174 9.519 27.691 3.384 6.518 7.526 19.038 9.202 27.839 1.657 8.782 5.674 21.174 8.895 27.544 3.24 6.353 7.564 19.848 9.644 29.975s6.205 23.235 9.151 29.146c2.946 5.91 7.089 18.338 9.188 27.618 2.081 9.28 6.959 23.788 10.808 32.221 3.845 8.433 8.006 21.56 9.239 29.146 1.233 7.604 4.385 17.952 7.014 23.015 2.634 5.063 7.917 19.572 11.748 32.221 3.826 12.667 9.681 31.3 12.995 41.426s7.587 24.285 9.5 31.466c4.217 15.908 5.227 15.981 19.33 1.528zM1147.853 698.085c-6.042-1.27-15.704-5.155-21.485-8.635-5.762-3.48-15.649-7.254-21.965-8.377-6.335-1.123-15.113-5.395-19.535-9.482-4.399-4.088-10.547-8.248-13.656-9.224-3.095-0.994-6.391-4.143-7.312-7.015-0.936-2.854-5.837-7.549-10.896-10.44-5.064-2.872-9.225-7.254-9.225-9.758s-2.686-5.395-5.962-6.444c-3.295-1.031-6.87-4.658-7.936-8.027-1.071-3.369-5.8-10.072-10.515-14.895-6.516-6.665-9.076-13.036-10.771-26.697-1.233-9.869-3.626-19.645-5.339-21.726-1.708-2.081-2.374-8.304-1.471-13.809 4.99-30.656 11.064-52.383 16.365-58.42 3.277-3.756 7.899-10.696 10.273-15.43 4.585-9.188 40.248-42.035 45.624-42.035 1.783 0 6.405-3.333 10.273-7.419 3.863-4.087 12.958-8.983 20.233-10.901 7.252-1.913 15.704-6 18.776-9.058 3.077-3.091 14.215-7.107 24.893-8.983 11.632-2.043 22.016-5.949 26.14-9.816 4.18-3.938 13.238-7.289 23.347-8.671 9.114-1.233 20.601-5.246 25.642-8.965 5.027-3.7 17.417-8.248 27.546-10.091 10.124-1.857 19.568-5.395 20.969-7.862 1.396-2.467 5.818-5.744 9.793-7.252 17.287-6.577 12.39-41.961-6.796-49.031-6.94-2.579-15.667-7.424-19.386-10.789-10.822-9.798-95.898-9.244-108.525 0.698-4.771 3.756-13.698 7.768-19.847 8.927-6.149 1.145-14.895 5.674-19.442 10.054-24.65 23.752-36.287 27.876-48.528 17.18-2.541-2.211-10.566-5.781-17.822-7.936-7.27-2.155-14.49-6.26-16.035-9.151s-6.647-6.186-11.325-7.345c-16.51-4.054-22.328-10.072-22.328-23.035 0-18.027 55.338-72.304 83.638-82.060 6.884-2.378 16.328-7.014 20.95-10.31 4.641-3.3 14.397-6.633 21.723-7.424 73.034-7.824 81.045-8.024 126.72-3.202 36.394 3.831 47.202 6.042 52.154 10.678 3.444 3.207 12.758 7.457 20.694 9.449 9.188 2.299 16.184 6.293 19.237 10.971 2.653 4.035 6.279 7.331 8.066 7.331 3.551 0 30.357 25.847 30.357 29.272 0 1.178 3.938 6.628 8.746 12.097 5.264 6.004 9.612 15.299 10.896 23.347 1.182 7.363 4.492 15.979 7.368 19.149 7.382 8.173 7.452 51.074 0.107 59.285-2.816 3.128-6.111 11.213-7.308 17.953-3.533 19.717-6.758 24.506-37.427 55.529-9.263 9.388-20.508 17.51-26.512 19.167-5.725 1.583-13.182 5.651-16.57 9.021-3.384 3.389-12.167 7.126-19.512 8.304-7.35 1.178-18.246 5.45-24.232 9.5-5.962 4.049-17.711 8.229-26.084 9.281-8.36 1.047-20.052 5.12-25.958 9.021-5.893 3.905-18.762 8.546-28.574 10.311-9.812 1.768-21.336 5.984-25.628 9.353-4.287 3.369-12.814 7.033-18.981 8.157-42.84 7.825-37.097 60.354 7.312 67.019 7.308 1.105 16.696 4.676 20.894 7.972 9.737 7.678 43.19 8.433 53.481 1.215 3.738-2.614 13.954-6.886 22.719-9.482 8.983-2.669 18.427-7.936 21.704-12.115 3.207-4.069 7.494-7.383 9.519-7.383s7.363-4.198 11.874-9.317c9.393-10.716 17.729-10.329 36.143 1.657 5.907 3.848 15.867 7.88 22.109 8.967 24.962 4.345 46.266 33.289 31.59 42.9-4.212 2.762-7.675 7.126-7.675 9.703 0 2.559-3.407 8.083-7.587 12.262-4.175 4.179-9.076 10.329-10.859 13.68-1.787 3.333-5.176 6.057-7.531 6.057s-7.233 4.143-10.845 9.206c-3.589 5.063-8.355 9.206-10.584 9.206s-6.223 3.333-8.89 7.402c-3.333 5.1-9.686 8.433-20.401 10.734-8.56 1.841-19.754 6.426-24.855 10.2-9.9 7.328-99.007 11.433-125.757 5.8zM4256.368 691.677c-14.341-1.252-41.258-3.351-59.834-4.621-49.226-3.406-47.551-1.455-47.551-55.181 0-58.568-6.684-53.836 76.162-53.891 36.58-0.019 68.575-1.362 71.117-2.946 3.98-2.523 4.808-28.796 6.13-195.591 0.847-105.961 2.672-194.96 4.068-197.762 4.845-9.756 18.432-12.316 59.983-11.264 57.293 1.452 50.739-24.287 52.559 205.954 0.829 106.696 2.653 195.717 4.017 197.815 1.857 2.89 19.53 3.848 70.861 3.848 85.201 0 78.536-4.64 78.536 54.591 0 47.595-1.75 52.4-20.95 57.371-11.655 3.019-263.727 4.455-295.098 1.675zM6184.82 687.498c6.796-2.651 18.525-6.407 26.112-8.359 39.564-10.108 95.139-61.127 95.139-87.346 0-9.206-15.267-21.229-35.654-28.115-8.239-2.78-18.106-7.052-21.876-9.5-9.356-6.039-18.665-3.075-34.816 11.066-40.122 35.259-80.058 41.647-131.863 21.1-31.418-12.464-37.19-17.988-41.193-39.272-2.653-14.122 4.98-33.362 14.196-35.774 3.677-0.957 13.684-5.468 22.295-10.016 8.611-4.566 21.085-9.3 27.741-10.515 6.703-1.233 17.129-4.766 23.226-7.88 6.097-3.109 19.596-7.862 30.022-10.547 10.38-2.709 23.412-7.512 28.951-10.682 5.492-3.184 14.848-6.735 20.759-7.917 5.911-1.159 16.291-5.264 22.993-9.095 6.749-3.845 15.732-8.043 19.968-9.332 7.727-2.36 20.666-12.023 39.331-29.403 64.186-59.857 34.863-190.124-48.687-216.045-4.143-1.289-13.964-5.599-21.876-9.556-35.235-17.715-155.089-17.641-189.673 0.093-7.633 3.901-17.268 8.118-21.504 9.388-28.951 8.653-76.567 56.581-76.66 77.126-0.047 12.097 0.559 12.926 14.522 19.442 8.006 3.738 22.575 10.92 32.396 15.946 20.061 10.291 33.606 8.858 44.265-4.696 2.979-3.793 15.081-12.316 26.903-18.963l21.504-12.079 107.38 0.168 22.156 13.382c29.51 17.846 39.005 48.277 18.339 58.903-3.724 1.932-9.542 5.907-12.893 8.872-3.351 2.946-13.731 7.824-22.993 10.826-9.309 3.002-19.689 7.256-23.087 9.463-3.398 2.211-13.731 5.618-22.993 7.568-9.263 1.969-21.69 6.004-27.555 8.951-5.911 2.946-18.665 7.638-28.346 10.44-9.681 2.779-22.109 7.638-27.601 10.803-5.539 3.17-13.498 6.758-17.734 7.973-38.447 11.124-80.012 54.886-93.324 98.394l-8.471 27.618 7.727 28.299c16.756 61.072 74.147 106.954 155.601 124.372 15.22 3.24 74.892-0.239 87.273-5.1zM3826.818 688.4c5.893-1.731 20.582-5.855 32.642-9.132 37.041-10.071 79.146-42.108 94.278-71.714l8.82-17.233-8.010-10.476c-5.558-7.291-12.921-12.078-24.152-15.705-8.876-2.872-19-6.997-22.495-9.188-14.415-8.985-24.394-6.867-41.737 8.912-29.514 26.826-94.576 42.457-113.664 27.323-2.174-1.731-10.845-5.45-19.279-8.286-47.258-15.834-56.166-54.002-17.213-73.739 8.378-4.253 16.016-9.003 16.975-10.55s9.002-4.531 17.859-6.611c8.872-2.081 21.043-6.26 27.043-9.277 6.018-3.021 19.442-7.699 29.864-10.384 10.417-2.709 23.454-7.494 28.956-10.645 5.525-3.146 15.56-6.684 22.314-7.824 6.758-1.159 17.804-5.283 24.543-9.151 6.754-3.887 15.737-8.099 19.954-9.351 68.25-20.438 100.743-136.141 54.714-194.853-3.938-5.027-10.454-13.405-14.485-18.614-6.149-7.973-17.050-16.607-35.333-28.025-48.97-30.562-182.239-39.619-224.289-15.244-5.064 2.928-15.76 7.806-23.789 10.826-8.006 3.035-14.559 6.479-14.559 7.657s-4.478 4.79-9.923 8.010c-43.157 25.484-61.179 65.527-35.402 78.676 7.121 3.645 17.818 9.775 23.766 13.661 21.928 14.248 35.733 13.144 57.898-4.659 27.103-21.765 33.95-24.711 65.946-28.281 74.105-8.285 137.048 16.147 137.048 53.229 0 10.072-28.351 35.444-44.037 39.438-7.014 1.787-20.326 6.535-29.603 10.547-9.3 4.017-22.407 8.271-29.165 9.449-6.735 1.178-16.403 4.622-21.467 7.657-5.059 3.058-16.109 7.256-24.557 9.337-18.153 4.492-46.764 17.859-74.985 35.021-93.268 56.725-89.344 176.641 7.494 228.857 6.735 3.627 14.559 8.616 17.361 11.084 2.779 2.449 15.206 7.015 27.615 10.145 12.39 3.112 25.977 7.070 30.189 8.782 10.147 4.124 69.26 4.364 82.865 0.331zM754.958 683.87c-18.614-10.108-19.274-15.852-20.452-178.484-1.052-143.281 0.182-179.959 9.663-284.5 4.859-53.69 5.176-54.058 46.043-54.039 33.289 0.019 49.58 3.942 54.863 13.163 6.372 11.143 7.256 485.265 0.922 494.931-8.671 13.238-71.727 19.425-91.038 8.93zM1898.328 685.067c-10.459-6.315-10.645-8.064-10.696-98.411-0.037-67.019-0.959-88.635-3.887-90.531-4.473-2.892-192.903-5.359-203.674-2.65l-7.27 1.822v84.179c0 110.416 2.467 105.96-58.582 105.96-34.998 0-37.19-0.369-44.349-7.531l-7.531-7.531v-236.059c0-290.816-5.32-264.28 53.132-264.355 58.233-0.093 55.361-5.618 57.33 110.415l1.527 90.531h211.717l1.55-96.186 1.527-96.163 7.606-6.149c10.217-8.266 79.272-7.457 87.761 1.029 14.448 14.457 15.811 488.689 1.452 506.419-6.205 7.659-76.66 11.839-87.613 5.21zM2268.281 683.134c-17.324-8.838-21.392-17.344-24.632-51.461-1.769-18.54-5.413-36.382-9.188-44.943-3.738-8.451-7.587-27.028-9.5-45.956-2.006-19.811-5.558-36.676-9.444-44.76-4.031-8.376-7.345-24.653-9.37-46.032-2.211-23.087-4.971-36.049-9.188-42.971-4.105-6.74-7.033-19.94-9.169-41.425-1.857-18.562-5.632-36.971-9.165-44.781-3.389-7.419-7.843-28.388-10.147-47.555-2.43-20.457-6.665-39.88-10.473-48.109-19.866-42.882-8.304-56.762 47.258-56.762h40.89l9.481 9.058c10.84 10.366 14.099 20.987 16.901 55.068 1.233 14.801 4.436 28.979 8.229 36.436 3.956 7.736 7.401 23.571 9.444 43.269 1.969 19.167 5.52 35.663 9.239 43.069 3.793 7.489 7.256 23.822 9.263 43.725 2.597 25.665 8.448 44.777 8.448 27.564 0-2.304 3.556-9.407 7.899-15.816 5.618-8.285 9.058-19.442 11.93-38.647 2.597-17.343 6.205-29.733 10.11-34.704 4.031-5.12 6.791-14.95 8.192-29.165 1.271-13.019 4.897-26.698 9.188-34.765 4.655-8.778 7.843-21.648 9.332-37.725 2.43-26.033 17.306-59.434 29.366-65.894 3.091-1.657 22.477-3.021 43.059-3.021h37.427l10.771 11.436c13.494 14.285 17.822 24.744 20.657 49.692 1.233 10.826 5.376 25.609 9.225 32.829 4.324 8.155 7.787 21.634 9.132 35.533 1.415 14.713 4.599 26.68 9.277 34.821 4.803 8.322 7.806 19.884 9.207 35.277 1.359 15.225 4.105 25.795 8.136 31.502 3.333 4.729 7.601 16.826 9.463 26.861 4.822 25.963 6.977 22.849 10.696-15.43 2.299-23.766 5.064-36.622 9.388-43.725 4.347-7.126 7.052-19.852 9.318-43.567 2.299-24.064 4.822-35.752 8.946-41.425 4.105-5.669 6.777-17.897 9.332-42.789 3.277-31.944 4.492-36.25 14.545-51.405l10.971-16.533h42.328c37.097 0 42.947 0.698 47.407 5.613 7.508 8.304 6.828 38.796-1.215 54.333-4.054 7.829-7.824 24.967-10.589 48.021-2.593 21.779-6.609 40.448-10.217 47.555-3.793 7.494-7.089 23.622-9.132 44.726-2.262 23.566-4.952 35.863-9.407 43.082-4.566 7.363-6.977 18.818-8.965 42.603-1.899 22.723-4.641 36.18-9.076 44.706-4.273 8.193-7.457 23.107-9.705 45.422-2.188 21.744-5.576 37.818-9.793 46.545-4.492 9.279-7.252 23.346-9.076 46.232-3.7 46.379-12.516 52.013-76.181 48.699-38.274-2.007-44.274-4.603-47.481-20.603-0.991-4.989-4.473-12.87-7.731-17.491-3.426-4.861-7.308-18.338-9.225-32-1.82-12.981-6.018-28.87-9.314-35.295s-7.568-23.42-9.5-37.781c-1.913-14.343-5.339-28.152-7.606-30.674-4.803-5.358-9.663-24.894-12.316-49.656-1.029-9.593-3.845-19.074-6.256-21.062-4.808-3.998-8.895-17.827-12.060-40.802-2.653-19.316-3.868-17.455-7.824 11.985-2.099 15.611-5.581 27.546-9.686 33.252-4.454 6.167-7.177 16.421-8.909 33.564-1.694 16.866-4.417 27.287-8.634 32.976-3.956 5.358-7.238 16.957-9.188 32.478-3.351 26.807-5.376 33.97-11.618 41.261-2.337 2.743-5.651 17.933-7.345 33.767-2.043 18.799-5.046 31.466-8.671 36.511-3.053 4.253-6.535 10.826-7.731 14.619-5.19 16.35-74.1 23.696-99.728 10.642zM94.269 674.83c4.658-4.658 7.53-11.047 7.53-16.755 0-5.081 2.651-15.963 5.891-24.193s7.53-26.587 9.518-40.782c2.007-14.195 6.885-37.542 10.844-51.885 3.976-14.343 8.616-36.455 10.309-49.105 2.854-21.136 12.906-58.917 21.595-81.213 4.75-12.153 7.953-6.74 12.593 21.299 1.97 11.86 6.112 27.215 9.242 34.136 3.111 6.921 7.125 21.802 8.929 33.050 1.786 11.25 5.91 27.176 9.15 35.388 3.222 8.212 7.953 25.795 10.476 39.070 2.54 13.275 6.757 28.409 9.389 33.62 2.614 5.229 6.738 20.861 9.169 34.725 6.701 38.444 12.739 41.905 68.817 39.438 39.361-1.749 46.467-5.487 46.467-24.395 0-5.008 3.388-17.62 7.53-28.041s8.873-27.452 10.53-37.855c1.657-10.402 5.247-23.272 7.99-28.575s6.885-20.419 9.205-33.583c2.301-13.164 6.462-29.312 9.223-35.867 2.743-6.572 7.622-24.874 10.807-40.69 6.811-33.694 6.352-32.991 18.023-28.151 9.905 4.105 13.495 14.527 17.509 50.762 1.123 10.124 4.455 24.634 7.382 32.219 2.946 7.604 6.978 26.237 8.966 41.427s6.223 35.222 9.408 44.501c3.166 9.28 7.364 28.612 9.315 42.955 1.95 14.361 4.752 29.109 6.186 32.81 7.68 19.572 94.999 18.117 94.999-1.583 0-11.931-9.998-69.173-13.568-77.735-2.504-5.984-6.591-27.305-9.095-47.392-2.504-20.069-6.572-41.335-9.058-47.245-2.504-5.909-6.814-26.329-9.612-45.366s-7.070-39.363-9.5-45.163c-2.43-5.8-6.609-25.428-9.314-43.618-2.709-18.176-6.758-36.641-9.025-41.007-2.243-4.343-6.256-23.38-8.89-42.291-2.634-18.907-6.772-39.126-9.188-44.907-2.411-5.8-5.32-16.663-6.442-24.138-1.122-7.494-4.678-17.929-7.88-23.217l-5.854-9.612-81.281 1.713-9.684 14.471c-6.811 10.203-10.77 21.104-13.347 36.827-2.025 12.297-6.315 28.444-9.555 35.882-3.222 7.457-7.364 23.347-9.169 35.295-1.822 11.971-5.928 27.75-9.131 35.095s-7.364 22.537-9.279 33.75c-1.896 11.231-6.075 26.624-9.26 34.225-3.203 7.587-7.695 24.543-9.96 37.674-4.602 26.456-7.106 31.078-12.261 22.514-1.915-3.184-6.591-9.593-10.383-14.248-4.161-5.12-8.874-18.046-11.856-32.573-2.725-13.275-6.959-28.002-9.389-32.773-2.449-4.752-6.444-19.242-8.893-32.219-2.43-12.963-7.033-29.775-10.218-37.376-3.166-7.587-7.474-24.157-9.536-36.827-2.081-12.646-5.689-26.75-8.027-31.334-2.338-4.566-6.314-18.12-8.837-30.124-7.769-36.897-12.040-39.806-58.637-39.806-44.976 0-53.887 6.428-57.918 41.742-1.123 9.961-4.713 26.070-7.953 35.789-3.24 9.742-7.898 31.837-10.328 49.105-2.448 17.273-6.646 37.618-9.371 45.219-2.707 7.587-6.959 27.62-9.463 44.483-2.485 16.887-7.161 38.977-10.402 49.105-3.222 10.128-6.738 26.698-7.806 36.822-1.068 10.128-5.247 30.16-9.316 44.503-4.050 14.343-8.763 38.591-10.457 53.873-1.712 15.3-5.854 35.793-9.205 45.551-17.987 52.252-12.942 60.133 38.385 60.133 33.525 0 35.827-0.405 42.969-7.531zM5555.852 679.581l79.779-2.302 26.81-12.833c14.755-7.052 26.857-14.141 26.857-15.761s3.258-4.713 7.261-6.886c6.563-3.553 19.596-17.896 37.841-41.703 37.841-49.435 9.449-153.94-51.619-190.045-16.57-9.761-17.687-29.957-2.793-48.905 3.258-4.124 7.54-12.591 9.542-18.814s5.399-13.386 7.587-15.928c2.188-2.523 6.423-10.808 9.449-18.413 2.979-7.601 8.657-18.483 12.521-24.208 3.863-5.73 7.028-12.781 7.028-15.69 0-2.89 3.305-10.105 7.308-16.016 4.003-5.93 9.030-16.128 11.124-22.682 2.095-6.558 6.516-14.881 9.775-18.469 4.375-4.822 5.679-10.017 4.98-19.828-1.164-16.314-9.495-19.056-53.388-17.548-43.241 1.489-45.242 3.407-83.875 81.585-17.268 34.979-33.327 67.053-35.654 71.27s-7.587 14.713-11.636 23.31c-13.033 27.49-16.943 28.849-82.432 28.849-39.796 0-57.53-1.085-60.137-3.682-2.7-2.667-3.724-27.099-3.863-89.758-0.14-58.196-1.35-89.535-3.817-96.81l-3.677-10.733-36.073-0.866c-41.239-0.991-46.732 0.847-51.2 17.012-6.284 22.556-4.282 474.494 2.141 480.22 9.635 8.617 66.141 10.072 220.16 5.634zM5154.723 674.518c6.423-4.493 6.842-6.997 6.842-42.476 0-54.702 18.013-49.086-163.747-50.945-166.772-1.694-159.977-0.829-162.676-20.547-10.659-77.863-17.594-74.474 153.041-74.86 152.669-0.372 148.759 0.051 154.484-16.719 6.191-18.209 2.932-80.994-4.515-86.444-4.189-3.095-35.7-3.961-143.639-3.994-169.379-0.056-153.321 4.748-154.484-46.289-1.21-55.715-18.944-50.008 161.001-51.866 175.383-1.806 158.394 2.89 161.513-44.651 2.374-35.7-1.443-55.198-11.264-57.828-3.631-0.977-94.068-1.787-200.937-1.806l-194.281-0.056-17.967 17.953v475.761l6.842 4.769c6.004 4.216 30.58 4.787 204.893 4.787s198.889-0.571 204.893-4.787zM5433.856 578.039c-6.982-4.382-8.052-77.974-1.303-87.236 5.12-6.977 110.918-8.192 159.651-1.801 59.671 7.804 75.869 50.189 29.882 78.119l-18.804 11.415-82.013 1.455c-56.879 0.994-83.689 0.405-87.412-1.952zM3003.401 413.086c17.25-9.574 33.066-21.336 43.743-32.512l10.44-10.938-3.24-19.61c-1.787-10.771-6.042-25.721-9.463-33.233-3.426-7.512-8.341-22.775-10.92-33.913-2.597-11.157-7.401-25.595-10.696-32.093-15.886-31.353-10.254-52.289 11.138-41.37 6.94 3.533 13.494 7.843 14.564 9.593 1.066 1.727 7.033 5.944 13.256 9.37 15.774 8.671 28.57 17.603 69.274 48.333 26.973 20.345 43.781 16.714 86.123-18.581 5.562-4.636 11.069-8.448 12.227-8.448 2.579 0 50.721-34.89 65.247-47.262 19.144-16.351 25.442 19.847 8.118 46.708-2.523 3.924-6.609 16.812-9.076 28.63-2.467 11.841-6.74 24.948-9.481 29.128-6.833 10.44-16.719 59.066-13.275 65.289 1.489 2.667 9.095 9.7 16.919 15.593 7.824 5.911 18.832 14.564 24.469 19.242 17.766 14.764 32.656 13.238 37.976-3.887 2.36-7.601 7.405-20.713 11.231-29.161 3.831-8.434 7.917-20.862 9.058-27.62 1.159-6.74 5.376-19.866 9.356-29.147 3.994-9.277 8.704-24.176 10.491-33.085 1.787-8.913 5.855-21.341 9.021-27.62 3.184-6.279 7.326-18.707 9.207-27.615 1.894-8.913 6.074-21.378 9.295-27.69 3.226-6.316 6.833-18.358 8.010-26.754s5.395-22.868 9.332-32.149c3.942-9.277 9.3-25.516 11.892-36.068 2.579-10.566 6.665-22.295 9.058-26.089 2.397-3.793 5.874-14.178 7.717-23.105 1.857-8.913 5.962-21.341 9.146-27.62 3.207-6.26 7.494-19.679 9.574-29.808s6.428-23.603 9.649-29.957c8.229-16.202 4.012-24.101-11.027-20.713-9.798 2.211-15.946 6.13-38.498 24.618-4.217 3.458-15.262 11.655-24.557 18.227-27.304 19.349-40.006 28.905-47.462 35.7-3.868 3.514-13.056 10.105-20.438 14.653-7.382 4.534-19.624 13.019-27.21 18.856-7.601 5.837-17.766 12.814-22.607 15.542-4.841 2.704-18.651 12.316-30.687 21.355-34.928 26.238-42.384 31.688-59.816 43.767-9.039 6.26-20.969 15.188-26.494 19.828-10.44 8.783-29.845 11.711-33.932 5.12-1.783-2.928-9.076-8.085-43.632-30.99-4.287-2.835-11.357-8.062-15.737-11.618-4.385-3.551-12.795-9.83-18.707-13.936s-16.109-11.306-22.663-16.002c-6.554-4.692-17.143-11.985-23.529-16.202-6.372-4.212-19.847-14.103-29.896-21.946-10.072-7.843-21.192-15.816-24.744-17.711-3.537-1.894-9.742-6.516-13.773-10.273-4.049-3.756-12.023-9.979-17.711-13.829-25.628-17.306-47.002-32.642-67.123-48.202-37.357-28.835-52.527-22.719-35.333 14.234 4.217 9.021 7.68 19.866 7.717 24.083 0.019 4.217 3.333 14.708 7.345 23.329 4.012 8.616 8.839 22.849 10.715 31.628 1.876 8.802 6.186 22.058 9.574 29.463 3.37 7.419 8.266 22.682 10.859 33.894 2.616 11.231 6.665 23.384 9.021 27.010 2.36 3.607 6.335 16.458 8.839 28.537s6.74 26.182 9.407 31.339c2.653 5.153 6.959 18.539 9.574 29.752 2.597 11.213 6.758 23.51 9.258 27.304 2.486 3.812 6.465 16.165 8.82 27.49 2.374 11.306 6.498 23.901 9.169 27.988 2.667 4.068 6.996 16.626 9.612 27.895 2.611 11.25 7.233 25.442 10.273 31.521 3.035 6.056 6.535 15.169 7.75 20.215 4.305 17.878 11.525 20.824 28.258 11.525z" />
<glyph unicode="&#xe91d;" glyph-name="settings_FILL" d="M394.661 21.333l-17.067 136.533c-9.244 3.556-17.955 7.822-26.133 12.8s-16.178 10.308-24 15.997l-126.933-53.333-117.333 202.667 109.867 83.203c-0.711 4.978-1.067 9.777-1.067 14.4v28.8c0 4.622 0.356 9.423 1.067 14.4l-109.867 83.2 117.333 202.667 126.933-53.333c7.822 5.689 16 11.022 24.533 16s17.067 9.244 25.6 12.8l17.067 136.533h234.667l17.067-136.533c9.244-3.556 17.954-7.822 26.135-12.8 8.175-4.978 16.179-10.311 24.001-16l126.93 53.333 117.333-202.667-109.864-83.2c0.711-4.978 1.064-9.778 1.064-14.4v-28.8c0-4.622-0.711-9.422-2.133-14.4l109.87-83.203-117.333-202.667-125.867 53.333c-7.822-5.689-16.003-11.019-24.536-15.997s-17.067-9.244-25.6-12.8l-17.067-136.533h-234.667zM514.128 298.667c41.244 0 76.447 14.575 105.603 43.73s43.73 64.358 43.73 105.603c0 41.244-14.575 76.444-43.73 105.6s-64.358 43.733-105.603 43.733c-41.956 0-77.333-14.578-106.133-43.733s-43.2-64.356-43.2-105.6c0-41.244 14.4-76.447 43.2-105.603s64.177-43.73 106.133-43.73z" />
</font>
</defs>
</svg>
